  0
SECTION
  2
HEADER
  9
$ACADVER
  1
AC1009
  9
$DWGCODEPAGE
  3
ansi_949
  9
$INSBASE
 10
0.0
 20
0.0
 30
0.0
  9
$EXTMIN
 10
-788.0
 20
-156.0
 30
0.0
  9
$EXTMAX
 10
816.2159000000001
 20
814.0
 30
0.0
  9
$LIMMIN
 10
0.0
 20
0.0
  9
$LIMMAX
 10
12.0
 20
9.0
  9
$ORTHOMODE
 70
     0
  9
$REGENMODE
 70
     1
  9
$FILLMODE
 70
     1
  9
$QTEXTMODE
 70
     0
  9
$MIRRTEXT
 70
     1
  9
$DRAGMODE
 70
     2
  9
$LTSCALE
 40
1.0
  9
$OSMODE
 70
    37
  9
$ATTMODE
 70
     1
  9
$TEXTSIZE
 40
0.2
  9
$TRACEWID
 40
0.05
  9
$TEXTSTYLE
  7
STANDARD
  9
$CLAYER
  8
0
  9
$CELTYPE
  6
BYLAYER
  9
$CECOLOR
 62
   256
  9
$DIMSCALE
 40
1.0
  9
$DIMASZ
 40
0.18
  9
$DIMEXO
 40
0.0625
  9
$DIMDLI
 40
0.38
  9
$DIMRND
 40
0.0
  9
$DIMDLE
 40
0.0
  9
$DIMEXE
 40
0.18
  9
$DIMTP
 40
0.0
  9
$DIMTM
 40
0.0
  9
$DIMTXT
 40
0.18
  9
$DIMCEN
 40
0.09
  9
$DIMTSZ
 40
0.0
  9
$DIMTOL
 70
     0
  9
$DIMLIM
 70
     0
  9
$DIMTIH
 70
     1
  9
$DIMTOH
 70
     1
  9
$DIMSE1
 70
     0
  9
$DIMSE2
 70
     0
  9
$DIMTAD
 70
     0
  9
$DIMZIN
 70
     0
  9
$DIMBLK
  1

  9
$DIMASO
 70
     1
  9
$DIMSHO
 70
     1
  9
$DIMPOST
  1

  9
$DIMAPOST
  1

  9
$DIMALT
 70
     0
  9
$DIMALTD
 70
     2
  9
$DIMALTF
 40
25.4
  9
$DIMLFAC
 40
1.0
  9
$DIMTOFL
 70
     0
  9
$DIMTVP
 40
0.0
  9
$DIMTIX
 70
     0
  9
$DIMSOXD
 70
     0
  9
$DIMSAH
 70
     0
  9
$DIMBLK1
  1

  9
$DIMBLK2
  1

  9
$DIMSTYLE
  2
STANDARD
  9
$DIMCLRD
 70
     0
  9
$DIMCLRE
 70
     0
  9
$DIMCLRT
 70
     0
  9
$DIMTFAC
 40
1.0
  9
$DIMGAP
 40
0.09
  9
$LUNITS
 70
     2
  9
$LUPREC
 70
     3
  9
$SKETCHINC
 40
0.1
  9
$FILLETRAD
 40
0.5
  9
$AUNITS
 70
     0
  9
$AUPREC
 70
     0
  9
$MENU
  1
.
  9
$ELEVATION
 40
0.0
  9
$PELEVATION
 40
0.0
  9
$THICKNESS
 40
0.0
  9
$LIMCHECK
 70
     0
  9
$CHAMFERA
 40
0.0
  9
$CHAMFERB
 40
0.0
  9
$SKPOLY
 70
     0
  9
$TDCREATE
 40
2457483.751968415
  9
$TDUPDATE
 40
2457483.75199434
  9
$TDINDWG
 40
0.0000000116
  9
$TDUSRTIMER
 40
0.0000000116
  9
$USRTIMER
 70
     1
  9
$ANGBASE
 50
0.0
  9
$ANGDIR
 70
     0
  9
$PDMODE
 70
     0
  9
$PDSIZE
 40
0.0
  9
$PLINEWID
 40
0.0
  9
$COORDS
 70
     1
  9
$SPLFRAME
 70
     0
  9
$SPLINETYPE
 70
     6
  9
$SPLINESEGS
 70
     8
  9
$ATTDIA
 70
     0
  9
$ATTREQ
 70
     1
  9
$HANDLING
 70
     1
  9
$HANDSEED
  5
193
  9
$SURFTAB1
 70
     6
  9
$SURFTAB2
 70
     6
  9
$SURFTYPE
 70
     6
  9
$SURFU
 70
     6
  9
$SURFV
 70
     6
  9
$UCSNAME
  2

  9
$UCSORG
 10
0.0
 20
0.0
 30
0.0
  9
$UCSXDIR
 10
1.0
 20
0.0
 30
0.0
  9
$UCSYDIR
 10
0.0
 20
1.0
 30
0.0
  9
$PUCSNAME
  2

  9
$PUCSORG
 10
0.0
 20
0.0
 30
0.0
  9
$PUCSXDIR
 10
1.0
 20
0.0
 30
0.0
  9
$PUCSYDIR
 10
0.0
 20
1.0
 30
0.0
  9
$USERI1
 70
     0
  9
$USERI2
 70
     0
  9
$USERI3
 70
     0
  9
$USERI4
 70
     0
  9
$USERI5
 70
     0
  9
$USERR1
 40
0.0
  9
$USERR2
 40
0.0
  9
$USERR3
 40
0.0
  9
$USERR4
 40
0.0
  9
$USERR5
 40
0.0
  9
$WORLDVIEW
 70
     1
  9
$SHADEDGE
 70
     3
  9
$SHADEDIF
 70
    70
  9
$TILEMODE
 70
     1
  9
$MAXACTVP
 70
    64
  9
$PLIMCHECK
 70
     0
  9
$PEXTMIN
 10
1.000000000000000E+20
 20
1.000000000000000E+20
 30
1.000000000000000E+20
  9
$PEXTMAX
 10
-1.000000000000000E+20
 20
-1.000000000000000E+20
 30
-1.000000000000000E+20
  9
$PLIMMIN
 10
0.0
 20
0.0
  9
$PLIMMAX
 10
12.0
 20
9.0
  9
$UNITMODE
 70
     0
  9
$VISRETAIN
 70
     1
  9
$PLINEGEN
 70
     0
  9
$PSLTSCALE
 70
     1
  0
ENDSEC
  0
SECTION
  2
TABLES
  0
TABLE
  2
VPORT
 70
     1
  0
VPORT
  2
*ACTIVE
 70
     0
 10
0.0
 20
0.0
 11
1.0
 21
1.0
 12
14.10795000000007
 22
329.0
 13
0.0
 23
0.0
 14
0.5
 24
0.5
 15
0.5
 25
0.5
 16
0.0
 26
0.0
 36
1.0
 17
0.0
 27
0.0
 37
0.0
 40
989.4
 41
1.653830824742268
 42
50.0
 43
0.0
 44
0.0
 50
0.0
 51
0.0
 71
     0
 72
   100
 73
     1
 74
     3
 75
     0
 76
     0
 77
     0
 78
     0
  0
ENDTAB
  0
TABLE
  2
LTYPE
 70
     1
  0
LTYPE
  2
CONTINUOUS
 70
     0
  3
Solid line
 72
    65
 73
     0
 40
0.0
  0
ENDTAB
  0
TABLE
  2
LAYER
 70
     3
  0
LAYER
  2
0
 70
     0
 62
     7
  6
CONTINUOUS
  0
LAYER
  2
기본값
 70
     0
 62
     7
  6
CONTINUOUS
  0
LAYER
  2
DEFPOINTS
 70
     0
 62
     7
  6
CONTINUOUS
  0
ENDTAB
  0
TABLE
  2
STYLE
 70
     2
  0
STYLE
  2
STANDARD
 70
     0
 40
0.0
 41
1.0
 50
0.0
 71
     0
 42
0.2
  3
txt
  4

  0
STYLE
  2
기본값
 70
     0
 40
0.0
 41
1.0
 50
0.0
 71
     0
 42
0.2
  3

  4

  0
ENDTAB
  0
TABLE
  2
VIEW
 70
     0
  0
ENDTAB
  0
TABLE
  2
UCS
 70
     0
  0
ENDTAB
  0
TABLE
  2
APPID
 70
     1
  0
APPID
  2
ACAD
 70
     0
  0
ENDTAB
  0
TABLE
  2
DIMSTYLE
 70
     2
  0
DIMSTYLE
  2
STANDARD
 70
     0
  3

  4

  5

  6

  7

 40
1.0
 41
0.18
 42
0.0625
 43
0.38
 44
0.18
 45
0.0
 46
0.0
 47
0.0
 48
0.0
140
0.18
141
0.09
142
0.0
143
25.4
144
1.0
145
0.0
146
1.0
147
0.09
 71
     0
 72
     0
 73
     1
 74
     1
 75
     0
 76
     0
 77
     0
 78
     0
170
     0
171
     2
172
     0
173
     0
174
     0
175
     0
176
     0
177
     0
178
     0
  0
DIMSTYLE
  2
기본값
 70
     0
  3

  4

  5

  6

  7

 40
1.0
 41
1.0
 42
0.5
 43
0.38
 44
0.5
 45
0.0
 46
0.0
 47
0.0
 48
0.0
140
1.0
141
0.5
142
0.0
143
25.4
144
1.0
145
0.0
146
1.0
147
0.25
 71
     0
 72
     0
 73
     0
 74
     1
 75
     0
 76
     0
 77
     1
 78
     1
170
     0
171
     2
172
     1
173
     0
174
     1
175
     0
176
     0
177
     0
178
     0
  0
ENDTAB
  0
ENDSEC
  0
SECTION
  2
BLOCKS
  0
BLOCK
  8
0
  2
$MODEL_SPACE
 70
     0
 10
0.0
 20
0.0
 30
0.0
  3
$MODEL_SPACE
  1

  0
ENDBLK
  5
21
  8
0
  0
BLOCK
 67
     1
  8
0
  2
$PAPER_SPACE
 70
     0
 10
0.0
 20
0.0
 30
0.0
  3
$PAPER_SPACE
  1

  0
ENDBLK
  5
1D
 67
     1
  8
0
  0
BLOCK
  8
0
  2
*D1
 70
     1
 10
0.0
 20
0.0
 30
0.0
  3
*D1
  1

  0
LINE
  5
C3
  8
기본값
 62
     0
 10
-437.9999999999998
 20
99.50000000000011
 30
0.0
 11
-437.9999999999998
 21
-15.49999999999989
 31
0.0
  0
LINE
  5
C4
  8
기본값
 62
     0
 10
-453.5999999999999
 20
99.50000000000011
 30
0.0
 11
-453.5999999999999
 21
-15.49999999999989
 31
0.0
  0
LINE
  5
C5
  8
기본값
 62
     0
 10
-438.9999999999998
 20
-14.99999999999989
 30
0.0
 11
-452.5999999999999
 21
-14.99999999999989
 31
0.0
  0
SOLID
  5
C6
  8
기본값
 62
     0
 10
-438.9999999999998
 20
-15.16666666666655
 30
0.0
 11
-438.9999999999998
 21
-14.83333333333322
 31
0.0
 12
-437.9999999999998
 22
-14.99999999999989
 32
0.0
 13
-437.9999999999998
 23
-14.99999999999989
 33
0.0
  0
SOLID
  5
C7
  8
기본값
 62
     0
 10
-452.5999999999999
 20
-14.83333333333322
 30
0.0
 11
-452.5999999999999
 21
-15.16666666666655
 31
0.0
 12
-453.5999999999999
 22
-14.99999999999989
 32
0.0
 13
-453.5999999999999
 23
-14.99999999999989
 33
0.0
  0
TEXT
  5
C8
  8
기본값
  6
CONTINUOUS
 62
     0
 10
-448.0142857142856
 20
-14.74999999999989
 30
0.0
 40
1.0
  1
15.60
  7
기본값
  0
POINT
  5
C9
  8
DEFPOINTS
 62
     0
 10
-437.9999999999998
 20
100.0000000000001
 30
0.0
  0
POINT
  5
CA
  8
DEFPOINTS
 62
     0
 10
-453.5999999999999
 20
100.0000000000001
 30
0.0
  0
POINT
  5
CB
  8
DEFPOINTS
 62
     0
 10
-453.5999999999999
 20
-14.99999999999989
 30
0.0
  0
ENDBLK
  5
C2
  8
0
  0
ENDSEC
  0
SECTION
  2
ENTITIES
  0
POLYLINE
  5
6B
  8
기본값
 66
     1
 10
0.0
 20
0.0
 30
0.0
  0
VERTEX
  5
6C
  8
기본값
 10
161.0
 20
464.0
 30
0.0
  0
VERTEX
  5
6D
  8
기본값
 10
161.0
 20
589.0
 30
0.0
  0
VERTEX
  5
6E
  8
기본값
 10
176.6
 20
589.0
 30
0.0
 42
0.9999999999999999
  0
VERTEX
  5
6F
  8
기본값
 10
176.6
 20
595.0
 30
0.0
  0
VERTEX
  5
70
  8
기본값
 10
176.6
 20
683.0
 30
0.0
 42
0.9999999999999999
  0
VERTEX
  5
71
  8
기본값
 10
176.6
 20
689.0
 30
0.0
  0
VERTEX
  5
72
  8
기본값
 10
161.0
 20
689.0
 30
0.0
  0
VERTEX
  5
73
  8
기본값
 10
161.0
 20
814.0
 30
0.0
  0
VERTEX
  5
74
  8
기본값
 10
361.0000000000001
 20
814.0
 30
0.0
  0
VERTEX
  5
75
  8
기본값
 10
361.0
 20
798.4
 30
0.0
 42
0.9999999999999999
  0
VERTEX
  5
76
  8
기본값
 10
367.0
 20
798.4
 30
0.0
  0
VERTEX
  5
77
  8
기본값
 10
455.0
 20
798.4
 30
0.0
 42
0.9999999999999999
  0
VERTEX
  5
78
  8
기본값
 10
461.0
 20
798.4
 30
0.0
  0
VERTEX
  5
79
  8
기본값
 10
461.0
 20
814.0
 30
0.0
  0
VERTEX
  5
7A
  8
기본값
 10
661.0
 20
814.0
 30
0.0
  0
VERTEX
  5
7B
  8
기본값
 10
661.0
 20
689.0
 30
0.0
  0
VERTEX
  5
7C
  8
기본값
 10
645.4
 20
689.0
 30
0.0
 42
0.9999999999999999
  0
VERTEX
  5
7D
  8
기본값
 10
645.4
 20
683.0
 30
0.0
  0
VERTEX
  5
7E
  8
기본값
 10
645.4
 20
595.0
 30
0.0
 42
0.9999999999999999
  0
VERTEX
  5
7F
  8
기본값
 10
645.4
 20
589.0
 30
0.0
  0
VERTEX
  5
80
  8
기본값
 10
661.0
 20
589.0
 30
0.0
  0
VERTEX
  5
81
  8
기본값
 10
661.0
 20
464.0
 30
0.0
  0
VERTEX
  5
82
  8
기본값
 10
161.0
 20
464.0
 30
0.0
  0
SEQEND
  5
83
  8
기본값
  0
POLYLINE
  5
84
  8
기본값
 66
     1
 10
0.0
 20
0.0
 30
0.0
  0
VERTEX
  5
85
  8
기본값
 10
-223.4505967983554
 20
-128.1
 30
0.0
  0
VERTEX
  5
86
  8
기본값
 10
-213.8505967983553
 20
-128.1
 30
0.0
  0
VERTEX
  5
87
  8
기본값
 10
-213.8505967983553
 20
-83.57
 30
0.0
  0
VERTEX
  5
88
  8
기본값
 10
-229.4505967983553
 20
-83.57
 30
0.0
  0
VERTEX
  5
89
  8
기본값
 10
-276.9252983991777
 20
-140.4
 30
0.0
  0
VERTEX
  5
8A
  8
기본값
 10
-276.9252983991777
 20
-156.0
 30
0.0
  0
VERTEX
  5
8B
  8
기본값
 10
-249.9005967983553
 20
-156.0
 30
0.0
  0
VERTEX
  5
8C
  8
기본값
 10
-249.9005967983554
 20
-140.4
 30
0.0
 42
-0.9999999999999999
  0
VERTEX
  5
8D
  8
기본값
 10
-243.9005967983554
 20
-140.4
 30
0.0
  0
VERTEX
  5
8E
  8
기본값
 10
-229.4505967983554
 20
-140.4
 30
0.0
  0
VERTEX
  5
8F
  8
기본값
 10
-229.4505967983554
 20
-128.1
 30
0.0
 42
-0.9999999999999999
  0
VERTEX
  5
90
  8
기본값
 10
-223.4505967983554
 20
-128.1
 30
0.0
  0
SEQEND
  5
91
  8
기본값
  0
POLYLINE
  5
92
  8
기본값
 66
     1
 10
0.0
 20
0.0
 30
0.0
  0
VERTEX
  5
93
  8
기본값
 10
-297.5252983991776
 20
-128.1
 30
0.0
  0
VERTEX
  5
94
  8
기본값
 10
-287.9252983991776
 20
-128.1
 30
0.0
  0
VERTEX
  5
95
  8
기본값
 10
-287.9252983991776
 20
-83.57
 30
0.0
  0
VERTEX
  5
96
  8
기본값
 10
-303.5252983991776
 20
-83.57
 30
0.0
  0
VERTEX
  5
97
  8
기본값
 10
-351.0
 20
-140.4
 30
0.0
  0
VERTEX
  5
98
  8
기본값
 10
-351.0
 20
-156.0
 30
0.0
  0
VERTEX
  5
99
  8
기본값
 10
-323.9752983991776
 20
-156.0
 30
0.0
  0
VERTEX
  5
9A
  8
기본값
 10
-323.9752983991776
 20
-140.4
 30
0.0
 42
-0.9999999999999999
  0
VERTEX
  5
9B
  8
기본값
 10
-317.9752983991776
 20
-140.4
 30
0.0
  0
VERTEX
  5
9C
  8
기본값
 10
-303.5252983991776
 20
-140.4
 30
0.0
  0
VERTEX
  5
9D
  8
기본값
 10
-303.5252983991776
 20
-128.1
 30
0.0
 42
-0.9999999999999999
  0
VERTEX
  5
9E
  8
기본값
 10
-297.5252983991776
 20
-128.1
 30
0.0
  0
SEQEND
  5
9F
  8
기본값
  0
POLYLINE
  5
A0
  8
기본값
 66
     1
 10
0.0
 20
0.0
 30
0.0
  0
VERTEX
  5
A1
  8
기본값
 10
-373.5252983991776
 20
-128.1
 30
0.0
  0
VERTEX
  5
A2
  8
기본값
 10
-363.9252983991776
 20
-128.1
 30
0.0
  0
VERTEX
  5
A3
  8
기본값
 10
-363.9252983991776
 20
-83.57
 30
0.0
  0
VERTEX
  5
A4
  8
기본값
 10
-379.5252983991776
 20
-83.57
 30
0.0
  0
VERTEX
  5
A5
  8
기본값
 10
-427.0
 20
-140.4
 30
0.0
  0
VERTEX
  5
A6
  8
기본값
 10
-427.0
 20
-156.0
 30
0.0
  0
VERTEX
  5
A7
  8
기본값
 10
-399.9752983991776
 20
-156.0
 30
0.0
  0
VERTEX
  5
A8
  8
기본값
 10
-399.9752983991776
 20
-140.4
 30
0.0
 42
-0.9999999999999999
  0
VERTEX
  5
A9
  8
기본값
 10
-393.9752983991776
 20
-140.4
 30
0.0
  0
VERTEX
  5
AA
  8
기본값
 10
-379.5252983991776
 20
-140.4
 30
0.0
  0
VERTEX
  5
AB
  8
기본값
 10
-379.5252983991776
 20
-128.1
 30
0.0
 42
-0.9999999999999999
  0
VERTEX
  5
AC
  8
기본값
 10
-373.5252983991776
 20
-128.1
 30
0.0
  0
SEQEND
  5
AD
  8
기본값
  0
POLYLINE
  5
AE
  8
기본값
 66
     1
 10
0.0
 20
0.0
 30
0.0
  0
VERTEX
  5
AF
  8
기본값
 10
-447.5999999999999
 20
-128.1
 30
0.0
  0
VERTEX
  5
B0
  8
기본값
 10
-437.9999999999998
 20
-128.1
 30
0.0
  0
VERTEX
  5
B1
  8
기본값
 10
-437.9999999999998
 20
-83.57
 30
0.0
  0
VERTEX
  5
B2
  8
기본값
 10
-453.5999999999999
 20
-83.57
 30
0.0
  0
VERTEX
  5
B3
  8
기본값
 10
-501.0747016008223
 20
-140.4
 30
0.0
  0
VERTEX
  5
B4
  8
기본값
 10
-501.0747016008223
 20
-156.0
 30
0.0
  0
VERTEX
  5
B5
  8
기본값
 10
-474.0499999999998
 20
-156.0
 30
0.0
  0
VERTEX
  5
B6
  8
기본값
 10
-474.0499999999999
 20
-140.4
 30
0.0
 42
-0.9999999999999999
  0
VERTEX
  5
B7
  8
기본값
 10
-468.0499999999999
 20
-140.4
 30
0.0
  0
VERTEX
  5
B8
  8
기본값
 10
-453.5999999999999
 20
-140.4
 30
0.0
  0
VERTEX
  5
B9
  8
기본값
 10
-453.5999999999999
 20
-128.1
 30
0.0
 42
-0.9999999999999999
  0
VERTEX
  5
BA
  8
기본값
 10
-447.5999999999999
 20
-128.1
 30
0.0
  0
SEQEND
  5
BB
  8
기본값
  0
DIMENSION
  5
BE
  8
기본값
  2
*D1
 10
-453.5999999999999
 20
-14.99999999999989
 30
0.0
 11
-445.7999999999998
 21
-14.24999999999989
 31
0.0
 70
    32
  1
<>
  3
기본값
 13
-437.9999999999998
 23
100.0000000000001
 33
0.0
 14
-453.5999999999999
 24
100.0000000000001
 34
0.0
  0
POLYLINE
  5
CC
  8
기본값
 66
     1
 10
0.0
 20
0.0
 30
0.0
  0
VERTEX
  5
CD
  8
기본값
 10
201.0
 20
387.9
 30
0.0
 42
0.9999999999999999
  0
VERTEX
  5
CE
  8
기본값
 10
207.0
 20
387.9
 30
0.0
  0
VERTEX
  5
CF
  8
기본값
 10
207.0
 20
403.5000000000001
 30
0.0
  0
VERTEX
  5
D0
  8
기본값
 10
307.0
 20
403.5000000000001
 30
0.0
  0
VERTEX
  5
D1
  8
기본값
 10
307.0
 20
387.9
 30
0.0
 42
0.9999999999999999
  0
VERTEX
  5
D2
  8
기본값
 10
313.0
 20
387.9
 30
0.0
  0
VERTEX
  5
D3
  8
기본값
 10
491.4
 20
387.9
 30
0.0
  0
VERTEX
  5
D4
  8
기본값
 10
491.4
 20
106.0
 30
0.0
 42
0.9999999999999999
  0
VERTEX
  5
D5
  8
기본값
 10
491.4
 20
100.0
 30
0.0
  0
VERTEX
  5
D6
  8
기본값
 10
507.0
 20
100.0
 30
0.0
  0
VERTEX
  5
D7
  8
기본값
 10
507.0
 20
0.0
 30
0.0
  0
VERTEX
  5
D8
  8
기본값
 10
479.1
 20
0.0
 30
0.0
  0
VERTEX
  5
D9
  8
기본값
 10
479.1
 20
15.6
 30
0.0
 42
0.9999999999999999
  0
VERTEX
  5
DA
  8
기본값
 10
473.1
 20
15.6
 30
0.0
  0
VERTEX
  5
DB
  8
기본값
 10
434.5682
 20
15.60000000000002
 30
0.0
  0
VERTEX
  5
DC
  8
기본값
 10
381.0
 20
200.0000000000001
 30
0.0
  0
VERTEX
  5
DD
  8
기본값
 10
425.0
 20
200.0000000000001
 30
0.0
 42
0.9999999999999999
  0
VERTEX
  5
DE
  8
기본값
 10
431.0
 20
200.0000000000001
 30
0.0
  0
VERTEX
  5
DF
  8
기본값
 10
431.0
 20
215.6000000000001
 30
0.0
 42
0.9999999999999999
  0
VERTEX
  5
E0
  8
기본값
 10
425.0
 20
215.6000000000001
 30
0.0
  0
VERTEX
  5
E1
  8
기본값
 10
88.99999999999989
 20
215.6000000000001
 30
0.0
 42
0.9999999999999999
  0
VERTEX
  5
E2
  8
기본값
 10
83.0
 20
215.6000000000001
 30
0.0
  0
VERTEX
  5
E3
  8
기본값
 10
83.0
 20
200.0000000000001
 30
0.0
 42
0.9999999999999999
  0
VERTEX
  5
E4
  8
기본값
 10
89.0
 20
200.0000000000001
 30
0.0
  0
VERTEX
  5
E5
  8
기본값
 10
133.0
 20
200.0000000000001
 30
0.0
  0
VERTEX
  5
E6
  8
기본값
 10
79.43179999999995
 20
15.60000000000002
 30
0.0
  0
VERTEX
  5
E7
  8
기본값
 10
40.89999999999998
 20
15.6
 30
0.0
 42
0.9999999999999999
  0
VERTEX
  5
E8
  8
기본값
 10
34.89999999999998
 20
15.6
 30
0.0
  0
VERTEX
  5
E9
  8
기본값
 10
34.89999999999998
 20
0.0
 30
0.0
  0
VERTEX
  5
EA
  8
기본값
 10
6.999999999999995
 20
0.0
 30
0.0
  0
VERTEX
  5
EB
  8
기본값
 10
6.999999999999995
 20
100.0
 30
0.0
  0
VERTEX
  5
EC
  8
기본값
 10
22.59999999999999
 20
100.0
 30
0.0
 42
0.9999999999999999
  0
VERTEX
  5
ED
  8
기본값
 10
22.59999999999999
 20
106.0
 30
0.0
  0
VERTEX
  5
EE
  8
기본값
 10
22.59999999999999
 20
387.9
 30
0.0
  0
VERTEX
  5
EF
  8
기본값
 10
201.0
 20
387.9
 30
0.0
  0
SEQEND
  5
F0
  8
기본값
  0
POLYLINE
  5
F1
  8
기본값
 66
     1
 10
0.0
 20
0.0
 30
0.0
  0
VERTEX
  5
F2
  8
기본값
 10
257.0000000000001
 20
235.0
 30
0.0
  0
VERTEX
  5
F3
  8
기본값
 10
381.0
 20
235.0
 30
0.0
 42
0.9999999999999999
  0
VERTEX
  5
F4
  8
기본값
 10
381.0
 20
265.0
 30
0.0
  0
VERTEX
  5
F5
  8
기본값
 10
133.0
 20
265.0
 30
0.0
 42
0.9999999999999999
  0
VERTEX
  5
F6
  8
기본값
 10
133.0
 20
235.0
 30
0.0
  0
VERTEX
  5
F7
  8
기본값
 10
257.0000000000001
 20
235.0
 30
0.0
  0
SEQEND
  5
F8
  8
기본값
  0
LINE
  5
F9
  8
기본값
 10
491.4000000000005
 20
387.9000000000001
 30
0.0
 11
313.0
 21
387.9
 31
0.0
  0
POLYLINE
  5
FA
  8
기본값
 66
     1
 10
0.0
 20
0.0
 30
0.0
  0
VERTEX
  5
FB
  8
기본값
 10
563.0
 20
106.0
 30
0.0
 42
-0.9999999999999999
  0
VERTEX
  5
FC
  8
기본값
 10
563.0
 20
100.0
 30
0.0
  0
VERTEX
  5
FD
  8
기본값
 10
547.4
 20
100.0
 30
0.0
  0
VERTEX
  5
FE
  8
기본값
 10
547.4
 20
0.0
 30
0.0
  0
VERTEX
  5
FF
  8
기본값
 10
575.3
 20
0.0
 30
0.0
  0
VERTEX
  5
100
  8
기본값
 10
575.3
 20
15.6
 30
0.0
 42
-0.9999999999999999
  0
VERTEX
  5
101
  8
기본값
 10
581.3
 20
15.6
 30
0.0
  0
VERTEX
  5
102
  8
기본값
 10
619.8317999999999
 20
15.60000000000002
 30
0.0
  0
VERTEX
  5
103
  8
기본값
 10
673.4
 20
200.0000000000001
 30
0.0
  0
VERTEX
  5
104
  8
기본값
 10
629.4
 20
200.0000000000001
 30
0.0
 42
-0.9999999999999999
  0
VERTEX
  5
105
  8
기본값
 10
623.4
 20
200.0000000000001
 30
0.0
  0
VERTEX
  5
106
  8
기본값
 10
623.4
 20
215.6000000000001
 30
0.0
  0
VERTEX
  5
107
  8
기본값
 10
563.0
 20
215.6000000000001
 30
0.0
  0
VERTEX
  5
108
  8
기본값
 10
563.0
 20
106.0
 30
0.0
  0
SEQEND
  5
109
  8
기본값
  0
POLYLINE
  5
10A
  8
기본값
 66
     1
 10
0.0
 20
0.0
 30
0.0
  0
VERTEX
  5
10B
  8
기본값
 10
800.6159
 20
106.0
 30
0.0
 42
0.9999999999999999
  0
VERTEX
  5
10C
  8
기본값
 10
800.6159
 20
100.0
 30
0.0
  0
VERTEX
  5
10D
  8
기본값
 10
816.2159000000001
 20
100.0
 30
0.0
  0
VERTEX
  5
10E
  8
기본값
 10
816.2159000000001
 20
0.0
 30
0.0
  0
VERTEX
  5
10F
  8
기본값
 10
788.3159
 20
0.0
 30
0.0
  0
VERTEX
  5
110
  8
기본값
 10
788.3159
 20
15.6
 30
0.0
 42
0.9999999999999999
  0
VERTEX
  5
111
  8
기본값
 10
782.3159
 20
15.6
 30
0.0
  0
VERTEX
  5
112
  8
기본값
 10
743.7841000000001
 20
15.60000000000002
 30
0.0
  0
VERTEX
  5
113
  8
기본값
 10
690.2159
 20
200.0000000000001
 30
0.0
  0
VERTEX
  5
114
  8
기본값
 10
734.2159
 20
200.0000000000001
 30
0.0
 42
0.9999999999999999
  0
VERTEX
  5
115
  8
기본값
 10
740.2159
 20
200.0000000000001
 30
0.0
  0
VERTEX
  5
116
  8
기본값
 10
740.2159
 20
215.6000000000001
 30
0.0
  0
VERTEX
  5
117
  8
기본값
 10
800.6159
 20
215.6000000000001
 30
0.0
  0
VERTEX
  5
118
  8
기본값
 10
800.6159
 20
106.0
 30
0.0
  0
SEQEND
  5
119
  8
기본값
  0
POLYLINE
  5
11A
  8
기본값
 66
     1
 10
0.0
 20
0.0
 30
0.0
  0
VERTEX
  5
11B
  8
기본값
 10
-76.04999999999995
 20
15.60000000000008
 30
0.0
 42
0.9999999999999999
  0
VERTEX
  5
11C
  8
기본값
 10
-82.04999999999995
 20
15.60000000000008
 30
0.0
  0
VERTEX
  5
11D
  8
기본값
 10
-103.0747016008223
 20
15.60000000000008
 30
0.0
  0
VERTEX
  5
11E
  8
기본값
 10
-139.4192512925966
 20
200.0000000000001
 30
0.0
  0
VERTEX
  5
11F
  8
기본값
 10
-94.99999999999994
 20
199.9999999999999
 30
0.0
 42
0.9999999999999999
  0
VERTEX
  5
120
  8
기본값
 10
-88.99999999999994
 20
199.9999999999999
 30
0.0
  0
VERTEX
  5
121
  8
기본값
 10
-88.99999999999994
 20
215.6
 30
0.0
 42
0.9999999999999999
  0
VERTEX
  5
122
  8
기본값
 10
-94.99999999999994
 20
215.6
 30
0.0
  0
VERTEX
  5
123
  8
기본값
 10
-335.0
 20
215.6
 30
0.0
 42
0.9999999999999999
  0
VERTEX
  5
124
  8
기본값
 10
-341.0
 20
215.6
 30
0.0
  0
VERTEX
  5
125
  8
기본값
 10
-341.0
 20
200.0
 30
0.0
 42
0.9999999999999999
  0
VERTEX
  5
126
  8
기본값
 10
-335.0
 20
200.0
 30
0.0
  0
VERTEX
  5
127
  8
기본값
 10
-290.5807487074032
 20
200.0
 30
0.0
  0
VERTEX
  5
128
  8
기본값
 10
-326.9252983991774
 20
15.59999999999999
 30
0.0
  0
VERTEX
  5
129
  8
기본값
 10
-347.9499999999998
 20
15.6
 30
0.0
 42
0.9999999999999997
  0
VERTEX
  5
12A
  8
기본값
 10
-353.9499999999998
 20
15.6
 30
0.0
  0
VERTEX
  5
12B
  8
기본값
 10
-353.9499999999998
 20
0.0
 30
0.0
  0
VERTEX
  5
12C
  8
기본값
 10
-374.4000000000001
 20
0.0000000000000018
 30
0.0
  0
VERTEX
  5
12D
  8
기본값
 10
-374.4
 20
94.00000000000001
 30
0.0
 42
0.9999999999999999
  0
VERTEX
  5
12E
  8
기본값
 10
-374.4
 20
100.0
 30
0.0
  0
VERTEX
  5
12F
  8
기본값
 10
-390.0
 20
100.0
 30
0.0
  0
VERTEX
  5
130
  8
기본값
 10
-390.0
 20
387.8999999999999
 30
0.0
  0
VERTEX
  5
131
  8
기본값
 10
-271.0
 20
387.9
 30
0.0
 42
0.9999999999999999
  0
VERTEX
  5
132
  8
기본값
 10
-265.0
 20
387.9
 30
0.0
  0
VERTEX
  5
133
  8
기본값
 10
-265.0
 20
403.5
 30
0.0
  0
VERTEX
  5
134
  8
기본값
 10
-165.0
 20
403.5
 30
0.0
  0
VERTEX
  5
135
  8
기본값
 10
-165.0
 20
387.9
 30
0.0
 42
0.9999999999999999
  0
VERTEX
  5
136
  8
기본값
 10
-159.0
 20
387.9
 30
0.0
  0
VERTEX
  5
137
  8
기본값
 10
-40.0
 20
387.9
 30
0.0
  0
VERTEX
  5
138
  8
기본값
 10
-39.99999999999983
 20
100.0000000000001
 30
0.0
  0
VERTEX
  5
139
  8
기본값
 10
-55.59999999999985
 20
100.0000000000001
 30
0.0
 42
0.9999999999999999
  0
VERTEX
  5
13A
  8
기본값
 10
-55.59999999999985
 20
94.00000000000011
 30
0.0
  0
VERTEX
  5
13B
  8
기본값
 10
-55.59999999999985
 20
0.0000000000000846
 30
0.0
  0
VERTEX
  5
13C
  8
기본값
 10
-76.04999999999995
 20
0.0000000000000841
 30
0.0
  0
VERTEX
  5
13D
  8
기본값
 10
-76.04999999999995
 20
15.60000000000008
 30
0.0
  0
SEQEND
  5
13E
  8
기본값
  0
POLYLINE
  5
13F
  8
기본값
 66
     1
 10
0.0
 20
0.0
 30
0.0
  0
VERTEX
  5
140
  8
기본값
 10
-474.05
 20
15.60000000000008
 30
0.0
 42
0.9999999999999999
  0
VERTEX
  5
141
  8
기본값
 10
-480.05
 20
15.60000000000008
 30
0.0
  0
VERTEX
  5
142
  8
기본값
 10
-501.0747016008223
 20
15.60000000000008
 30
0.0
  0
VERTEX
  5
143
  8
기본값
 10
-537.4192512925966
 20
200.0000000000001
 30
0.0
  0
VERTEX
  5
144
  8
기본값
 10
-492.9999999999999
 20
199.9999999999999
 30
0.0
 42
0.9999999999999999
  0
VERTEX
  5
145
  8
기본값
 10
-486.9999999999999
 20
199.9999999999999
 30
0.0
  0
VERTEX
  5
146
  8
기본값
 10
-486.9999999999999
 20
215.6
 30
0.0
 42
0.9999999999999999
  0
VERTEX
  5
147
  8
기본값
 10
-492.9999999999999
 20
215.6
 30
0.0
  0
VERTEX
  5
148
  8
기본값
 10
-733.0
 20
215.6
 30
0.0
 42
0.9999999999999999
  0
VERTEX
  5
149
  8
기본값
 10
-739.0
 20
215.6
 30
0.0
  0
VERTEX
  5
14A
  8
기본값
 10
-739.0
 20
200.0
 30
0.0
 42
0.9999999999999999
  0
VERTEX
  5
14B
  8
기본값
 10
-733.0
 20
200.0
 30
0.0
  0
VERTEX
  5
14C
  8
기본값
 10
-688.5807487074032
 20
200.0
 30
0.0
  0
VERTEX
  5
14D
  8
기본값
 10
-724.9252983991774
 20
15.59999999999999
 30
0.0
  0
VERTEX
  5
14E
  8
기본값
 10
-745.9499999999998
 20
15.6
 30
0.0
 42
0.9999999999999997
  0
VERTEX
  5
14F
  8
기본값
 10
-751.9499999999998
 20
15.6
 30
0.0
  0
VERTEX
  5
150
  8
기본값
 10
-751.9499999999998
 20
0.0
 30
0.0
  0
VERTEX
  5
151
  8
기본값
 10
-772.4000000000001
 20
0.0000000000000018
 30
0.0
  0
VERTEX
  5
152
  8
기본값
 10
-772.4
 20
94.00000000000001
 30
0.0
 42
0.9999999999999999
  0
VERTEX
  5
153
  8
기본값
 10
-772.4
 20
100.0
 30
0.0
  0
VERTEX
  5
154
  8
기본값
 10
-788.0
 20
100.0
 30
0.0
  0
VERTEX
  5
155
  8
기본값
 10
-788.0
 20
387.8999999999999
 30
0.0
  0
VERTEX
  5
156
  8
기본값
 10
-669.0
 20
387.9
 30
0.0
 42
0.9999999999999999
  0
VERTEX
  5
157
  8
기본값
 10
-663.0
 20
387.9
 30
0.0
  0
VERTEX
  5
158
  8
기본값
 10
-663.0
 20
403.5
 30
0.0
  0
VERTEX
  5
159
  8
기본값
 10
-563.0
 20
403.5
 30
0.0
  0
VERTEX
  5
15A
  8
기본값
 10
-563.0
 20
387.9
 30
0.0
 42
0.9999999999999999
  0
VERTEX
  5
15B
  8
기본값
 10
-557.0
 20
387.9
 30
0.0
  0
VERTEX
  5
15C
  8
기본값
 10
-438.0
 20
387.9
 30
0.0
  0
VERTEX
  5
15D
  8
기본값
 10
-437.9999999999998
 20
100.0000000000001
 30
0.0
  0
VERTEX
  5
15E
  8
기본값
 10
-453.5999999999999
 20
100.0000000000001
 30
0.0
 42
0.9999999999999999
  0
VERTEX
  5
15F
  8
기본값
 10
-453.5999999999999
 20
94.00000000000011
 30
0.0
  0
VERTEX
  5
160
  8
기본값
 10
-453.5999999999999
 20
0.0000000000000846
 30
0.0
  0
VERTEX
  5
161
  8
기본값
 10
-474.05
 20
0.0000000000000841
 30
0.0
  0
VERTEX
  5
162
  8
기본값
 10
-474.05
 20
15.60000000000008
 30
0.0
  0
SEQEND
  5
163
  8
기본값
  0
POLYLINE
  5
164
  8
기본값
 66
     1
 10
0.0
 20
0.0
 30
0.0
  0
VERTEX
  5
165
  8
기본값
 10
-486.4000000000002
 20
483.0000000000001
 30
0.0
 42
0.9999999999999999
  0
VERTEX
  5
166
  8
기본값
 10
-486.4000000000002
 20
489.0000000000001
 30
0.0
  0
VERTEX
  5
167
  8
기본값
 10
-502.0000000000002
 20
489.0000000000001
 30
0.0
  0
VERTEX
  5
168
  8
기본값
 10
-502.0000000000002
 20
740.9999999999994
 30
0.0
  0
VERTEX
  5
169
  8
기본값
 10
-486.4000000000002
 20
740.9999999999994
 30
0.0
 42
0.9999999999999999
  0
VERTEX
  5
16A
  8
기본값
 10
-486.4000000000002
 20
746.9999999999994
 30
0.0
  0
VERTEX
  5
16B
  8
기본값
 10
-486.4000000000002
 20
774.4
 30
0.0
  0
VERTEX
  5
16C
  8
기본값
 10
-432.0
 20
774.4
 30
0.0
 42
0.9999999999999999
  0
VERTEX
  5
16D
  8
기본값
 10
-426.0
 20
774.4
 30
0.0
  0
VERTEX
  5
16E
  8
기본값
 10
-426.0
 20
790.0
 30
0.0
  0
VERTEX
  5
16F
  8
기본값
 10
-78.0
 20
790.0
 30
0.0
  0
VERTEX
  5
170
  8
기본값
 10
-78.0
 20
774.4
 30
0.0
 42
0.9999999999999999
  0
VERTEX
  5
171
  8
기본값
 10
-72.0
 20
774.4
 30
0.0
  0
VERTEX
  5
172
  8
기본값
 10
-17.5999999999998
 20
774.4
 30
0.0
  0
VERTEX
  5
173
  8
기본값
 10
-17.5999999999998
 20
746.9999999999994
 30
0.0
 42
0.9999999999999999
  0
VERTEX
  5
174
  8
기본값
 10
-17.5999999999998
 20
740.9999999999994
 30
0.0
  0
VERTEX
  5
175
  8
기본값
 10
-1.999999999999773
 20
740.9999999999994
 30
0.0
  0
VERTEX
  5
176
  8
기본값
 10
-1.999999999999773
 20
489.0000000000001
 30
0.0
  0
VERTEX
  5
177
  8
기본값
 10
-17.5999999999998
 20
489.0000000000001
 30
0.0
 42
0.9999999999999999
  0
VERTEX
  5
178
  8
기본값
 10
-17.5999999999998
 20
483.0000000000001
 30
0.0
  0
VERTEX
  5
179
  8
기본값
 10
-17.5999999999998
 20
455.5999999999996
 30
0.0
  0
VERTEX
  5
17A
  8
기본값
 10
-72.0
 20
455.5999999999996
 30
0.0
 42
0.9999999999999999
  0
VERTEX
  5
17B
  8
기본값
 10
-78.0
 20
455.5999999999996
 30
0.0
  0
VERTEX
  5
17C
  8
기본값
 10
-78.0
 20
439.9999999999995
 30
0.0
  0
VERTEX
  5
17D
  8
기본값
 10
-426.0
 20
439.9999999999995
 30
0.0
  0
VERTEX
  5
17E
  8
기본값
 10
-426.0
 20
455.5999999999996
 30
0.0
 42
0.9999999999999999
  0
VERTEX
  5
17F
  8
기본값
 10
-432.0
 20
455.5999999999996
 30
0.0
  0
VERTEX
  5
180
  8
기본값
 10
-486.4000000000002
 20
455.5999999999996
 30
0.0
  0
VERTEX
  5
181
  8
기본값
 10
-486.4000000000002
 20
483.0000000000001
 30
0.0
  0
SEQEND
  5
182
  8
기본값
  0
POLYLINE
  5
183
  8
기본값
 66
     1
 10
0.0
 20
0.0
 30
0.0
  0
VERTEX
  5
184
  8
기본값
 10
209.0
 20
781.0
 30
0.0
  0
VERTEX
  5
185
  8
기본값
 10
196.0
 20
781.0
 30
0.0
  0
VERTEX
  5
186
  8
기본값
 10
196.0
 20
768.0
 30
0.0
  0
VERTEX
  5
187
  8
기본값
 10
209.0
 20
768.0
 30
0.0
  0
VERTEX
  5
188
  8
기본값
 10
209.0
 20
781.0
 30
0.0
  0
SEQEND
  5
189
  8
기본값
  0
ENDSEC
  0
EOF
